#TITLE:No Rock No Life;
#SUBTITLE:- Sumomo mo Momo mo 1st Ending;
#ARTIST:HoneyBee;
#TITLETRANSLIT:;
#SUBTITLETRANSLIT:;
#ARTISTTRANSLIT:;
#CREDIT:Mellow;
#BANNER:banner.png;
#BACKGROUND:background.jpg;
#LYRICSPATH:no rock no life.lrc;
#CDTITLE:CREDIT.png;
#MUSIC:No Rock No Life.mp3;
#OFFSET:1.600;
#SAMPLESTART:44.807;
#SAMPLELENGTH:25.000;
#SELECTABLE:YES;
#BPMS:0.000=104.000,16.500=100.000,20.000=168.000;
#STOPS:19.500=0.140
;
#BGCHANGES:2.000=Sumomomo ed video.avi=0.900=1=0=0,
99999=-nosongbg-=1.000=0=0=0 // don't automatically add -songbackground-
;
// cache tags:
#FIRSTBEAT:4.000;
#LASTBEAT:209.500;
#SONGFILENAME:songs/Otaku's Dream 3rd Anime Mix/[errorrrr] No Rock No Life - Sumomo mo Momo mo ED/no rock no life.sm;
#HASMUSIC:1;
#HASBANNER:1;
#MUSICLENGTH:79.872;
// end cache tags

//---------------dance-single - ----------------
#NOTES:
     dance-single:
     :
     Hard:
     9:
     0.671,0.590,0.363,0.977,0.000,268.000,29.000,78.000,0.000,0.000:
0000
0000
0000
0000
,
0200
0300
0002
0003
0020
0030
0200
0300
,
1000
0100
0001
0010
0100
0020
0030
0100
,
1000
0010
0100
0001
0010
0100
1000
0100
,
0010
0200
0000
0000
0000
0000
0000
0300
,
1000
0100
0010
0001
2000
0000
3020
0030
,
0001
0010
0100
1000
0200
0000
0302
0003
,
0010
0100
1000
0100
0020
0000
2030
3000
,
0100
0010
0001
0010
0100
1000
0100
0010
,
1000
0100
0010
0001
0200
0000
0302
0003
,
0010
0100
1000
0100
0020
0000
2030
3000
,
0100
0010
0001
0010
0200
0000
0302
0003
,
0010
0100
1000
0200
0300
0010
1000
0100
,
0020
0000
0030
0100
0020
0030
1000
0020
,
0030
2000
3000
0001
0010
0100
1000
0010
,
0200
0000
0300
1000
0020
0000
0030
0001
,
0200
0300
0010
1000
0100
0020
0000
0000
,
0000
0000
0030
0000
0020
0030
1000
0020
,
0030
0100
1000
0010
0100
0010
1000
0100
,
0002
0000
0003
0100
0022
0000
0000
0000
,
0000
0000
0000
0033
0000
0100
0001
0010
,
2000
0000
3000
0100
0010
0002
0000
0003
,
0200
0300
0001
0010
0100
1000
0001
0100
,
0020
0000
0030
1000
0020
0030
1000
0100
,
0002
0003
0100
2020
0000
0000
0000
0000
,
0000
3030
0000
0100
0020
0030
0010
2000
,
0000
3000
0200
0300
0010
0001
0010
1000
,
0200
0000
0300
0001
0020
0000
0000
0000
,
0030
1000
0100
0010
0001
0200
0000
0000
,
0000
0300
1100
0000
0110
0000
0011
0000
,
0110
1010
0101
1010
,
0110
1001
0101
2020
,
0000
0000
3030
0200
0300
0010
1000
0010
,
0200
0300
1000
0200
0300
0002
0003
0010
,
2000
3000
0010
0200
0300
0010
0100
0002
,
0000
0003
1100
0000
0101
0000
2020
0000
,
0000
3030
0101
0000
1100
0020
0030
0100
,
1000
0100
0020
0030
1000
0100
0010
0100
,
1000
0100
0011
0000
0101
0000
2020
3030
,
0000
0100
0100
0010
0100
1000
0010
0100
,
0001
0010
0100
1000
0010
0100
0001
0010
,
0100
2000
0000
0000
3000
0100
0010
0100
,
1000
0010
0200
0000
0301
0010
0000
2000
,
0000
3100
0002
0003
0010
2000
3000
0200
,
0300
0002
0003
0010
2000
3000
0100
0010
,
0001
1000
0200
0000
0300
0020
0030
0100
,
0010
1000
0101
0000
0011
0000
1100
0000
,
0100
0010
0100
0000
1000
0200
0300
0010
,
0100
0002
0003
0100
0010
0100
2000
3000
,
0011
1100
0101
0110
,
1000
0020
0030
0001
0010
0100
2000
3000
,
0010
2000
0100
0100
3100
0200
0300
0001
,
0100
1000
0010
0101
0000
0000
0000
0000
;

//---------------dance-single - Copied from----------------
#NOTES:
     dance-single:
     Copied from:
     Challenge:
     12:
     0.880,0.820,0.576,1.000,0.163,356.000,46.000,90.000,0.000,0.000:
0000
0000
0000
0000
,
2200
3300
0202
0303
2020
3030
0220
0330
,
1000
0100
0001
0010
0100
0022
0033
0100
,
1000
0010
0100
0001
0010
0100
1000
0100
,
0010
0200
0000
0000
0000
0000
0000
0300
,
1000
0100
0010
0001
2200
3300
0220
0330
,
0001
0010
0100
1000
0220
0330
0022
0033
,
0010
0100
1000
0100
0220
0330
2020
3030
,
0100
0010
0001
0010
0100
1000
0100
0010
,
1000
0000
0100
0000
0010
0000
0001
0010
0200
0000
0000
0000
0302
0000
0003
0000
,
0010
0000
0100
0000
1000
0000
0100
0001
0020
0000
0000
0000
2030
0000
3000
0000
,
0100
0010
0001
0010
0200
0000
0302
0003
,
0010
0100
1000
0200
0300
0010
1000
0100
,
0010
0000
0100
0000
0001
0000
0100
1000
0020
0000
0030
0000
1000
0000
0020
0000
,
0130
0000
2000
0000
3010
0100
0001
0000
0100
0000
0010
0000
1000
0000
0010
0000
,
0200
0000
0300
0000
0010
0100
1000
0000
0020
0000
0000
0000
0030
0000
0001
0000
,
0200
0000
0300
0000
0010
0000
1000
0001
0100
0000
0020
0000
0000
0000
0000
0000
,
0000
0000
0000
0000
0030
0000
0000
0100
0020
0000
0030
0000
1000
0000
0020
0000
,
0030
0000
0100
0000
1000
0000
0010
0001
0100
0000
0010
0000
1000
0000
0100
0000
,
0002
0000
0000
0000
0003
0000
0100
1000
0002
0000
0100
0000
0100
0000
0100
0000
,
0100
0000
0100
0000
0100
0000
0003
1000
0100
0000
0100
0000
0001
0000
0010
0000
,
2000
0000
0000
0000
3000
0000
0100
0001
0010
1000
0002
0000
0000
0000
0013
0000
,
0200
0000
0300
0000
0001
0000
0010
0000
0100
0010
1000
0100
0001
0000
0100
0000
,
0020
0000
0000
0000
0130
0000
1000
0100
0020
0001
0030
0000
1000
0000
0100
0000
,
0002
0000
0003
0000
0100
0000
2000
0000
0100
0100
0100
0000
0100
0000
0000
0000
,
0000
0000
3000
0000
0000
0000
0100
0000
0010
0100
1000
0000
0010
0000
2000
0000
,
3001
0000
0010
0000
0200
0000
0300
0001
0010
0000
0001
0000
0010
0000
1000
0000
,
0200
0000
0010
0000
0310
0000
0001
0100
0010
0000
1000
0100
0010
0000
0100
0000
,
0010
0000
1000
0000
0100
0000
0010
1000
0001
0000
0200
0000
0010
0000
0000
0000
,
0010
0300
1010
0100
0101
0010
1010
0100
,
0101
0010
1010
0100
0101
0010
1010
0100
,
0101
0010
1010
0100
0101
0010
2020
0000
,
0000
0000
0000
0000
3030
0000
0100
1000
0100
0001
0010
0000
1000
0000
0010
0000
,
0200
0310
1000
0200
0310
0002
0103
0010
,
2000
3100
0001
0200
0300
0010
0100
0202
,
0000
0303
2020
3030
0202
0303
2020
0000
,
0000
3030
0101
0000
1100
0020
0030
0100
,
1000
0100
0020
0030
1000
0100
0010
0100
,
1000
0100
0101
0010
1010
0100
0002
0103
,
1100
0010
0100
0010
0101
1000
0010
0100
,
0011
0010
0100
1000
0110
0010
0001
0010
,
0101
2000
0200
0300
3000
0100
0010
0100
,
1000
0010
0200
0010
0301
0020
0130
2000
,
3010
0100
0002
0103
0010
2000
3001
0200
,
0310
0002
0103
0010
2000
3000
0100
0010
,
0001
1000
0220
0000
0330
0002
0013
0100
,
0010
1000
0101
0010
0011
0010
1100
0100
,
0100
0010
0100
0010
1000
0200
0300
0010
,
0100
0002
0003
0100
0010
0100
2000
3100
,
0011
1100
0101
0110
,
1100
0020
0030
0001
0010
0100
2000
3100
,
0010
0000
2000
0000
0100
0000
0100
0000
3100
0000
0200
0000
0300
0000
0001
0010
,
0100
1000
0100
0000
1010
0000
0101
0000
0000
0000
0000
0000
0000
0000
0000
0000
;

//---------------dance-single - Copied from----------------
#NOTES:
     dance-single:
     Copied from:
     Medium:
     6:
     0.495,0.525,0.063,0.075,0.000,266.000,5.000,6.000,0.000,0.000:
0000
0000
0000
0000
,
0100
0001
0010
0100
,
1000
0100
0001
0010
0100
0010
0000
0100
,
1000
0010
0100
0001
0010
0100
1000
0100
,
0010
0200
0000
0000
0000
0000
0000
0300
,
1000
0100
0010
0001
1000
0000
0010
0000
,
0001
0010
0100
1000
0100
0000
0001
0000
,
0010
0100
1000
0100
0010
0000
1000
0000
,
0100
0010
0001
0010
0100
1000
0100
0010
,
1000
0100
0010
0001
0100
0000
0001
0000
,
0010
0100
1000
0100
0010
0000
1000
0000
,
0100
0010
0001
0010
0100
0000
0001
0000
,
0010
0100
1000
0100
0000
0010
1000
0100
,
0010
0000
0000
0100
0010
0000
1000
0010
,
0000
1000
0000
0001
0010
0100
1000
0010
,
0100
0000
0000
1000
0010
0000
0000
0001
,
0100
0000
0010
1000
0100
0010
0000
0000
,
0000
0000
0000
0000
0010
0000
1000
0010
,
0000
0100
1000
0010
0100
0010
1000
0100
,
0001
0000
0000
0100
0002
0000
0000
0000
,
0000
0000
0000
0000
0003
0100
0001
0010
,
1000
0000
0000
0100
0010
0001
0000
0000
,
0100
0000
0001
0010
0100
1000
0001
0100
,
0010
0000
0000
1000
0010
0000
1000
0100
,
0001
0000
0100
2000
0000
0000
0000
0000
,
0000
0000
3000
0100
0010
0000
0010
1000
,
0000
0000
0100
0000
0010
0001
0010
1000
,
0200
0000
0300
0001
0020
0000
0000
0000
,
0030
1000
0100
0010
0001
0100
0000
0000
,
0000
1000
0100
0010
,
0001
0010
0100
1000
,
0100
0010
0001
0020
,
0000
0000
0030
0100
0000
0010
1000
0010
,
0100
0000
1000
0100
0000
0001
0000
0010
,
1000
0000
0010
0100
0000
0010
0100
0001
,
0000
1100
0101
1010
,
0000
0000
0100
0000
1000
0010
0000
0100
,
1000
0100
0010
0000
1000
0100
0010
0100
,
1000
0100
0010
0000
0100
0000
1000
0000
,
0000
0001
0100
0010
0100
1000
0010
0100
,
0001
0010
0100
1000
0010
0100
0001
0010
,
0100
1000
0000
0000
0000
0100
0010
0100
,
1000
0010
0100
0000
0001
0010
0000
1000
,
0000
0100
0001
0000
0010
1000
0000
0100
,
0000
0001
0000
0010
1000
0000
0100
0010
,
0001
1000
0100
0000
0000
0010
0000
0100
,
0010
1000
0101
0000
0001
0000
1000
0000
,
0100
0010
0100
0000
1000
0100
0000
0010
,
0100
0001
0000
0100
0010
0100
1000
0000
,
0001
0100
0010
1000
,
0100
0010
0000
0001
0010
0100
1000
0000
,
0010
1000
0100
0000
0100
0000
0000
0001
,
0100
0001
0010
1010
0000
0000
0000
0000
;

//---------------dance-single - Copied from Copied f----------------
#NOTES:
     dance-single:
     Copied from Copied f:
     Easy:
     4:
     0.444,0.525,0.000,0.088,0.000,241.000,0.000,7.000,0.000,0.000:
0000
0000
0000
0000
,
0100
0001
0010
0100
,
1000
0100
0001
0010
0100
0010
0000
0100
,
1000
0010
0100
0001
0010
0100
1000
0100
,
0010
0200
0000
0000
0000
0000
0000
0300
,
1000
0010
1000
0010
,
0001
0100
0100
0001
,
0010
1000
0010
1000
,
0100
0001
0100
0100
,
1000
0010
0100
0001
,
0010
1000
0010
1000
,
0100
0001
0100
0001
,
0010
0000
1000
0000
0000
0010
1000
0100
,
0010
0000
0000
0100
0010
0000
1000
0010
,
0000
1000
0000
0001
0010
0100
1000
0010
,
0100
0000
0000
1000
0010
0000
0000
0001
,
0100
0000
0010
1000
0100
0020
0000
0000
,
0000
0000
0030
0000
0010
0000
1000
0010
,
0000
0100
1000
0010
0100
0010
1000
0100
,
0001
0000
0000
0100
0002
0000
0000
0000
,
0000
0000
0000
0000
0003
0100
0001
0010
,
1000
0000
0000
0100
0010
0001
0000
0000
,
0100
0000
0001
0010
0100
1000
0001
0100
,
0010
0000
0000
1000
0010
0000
1000
0100
,
0001
0000
0100
2000
0000
0000
0000
0000
,
0000
0000
3000
0100
0010
0000
0010
1000
,
0000
0000
0100
0000
0010
0001
0010
1000
,
0200
0000
0300
0001
0020
0000
0000
0000
,
0030
1000
0100
0010
0001
0100
0000
0000
,
0000
1000
0100
0010
,
0001
0010
0100
1000
,
0100
0010
0001
0020
,
0000
0000
0030
0100
0000
0010
1000
0010
,
0100
0000
1000
0100
0000
0001
0000
0010
,
1000
0000
0010
0100
0000
0010
0100
0001
,
0000
1000
0100
1000
,
0000
0000
0100
0000
1000
0010
0000
0100
,
1000
0100
0010
0000
1000
0100
0010
0100
,
1000
0100
0010
0000
0100
0000
1000
0000
,
0000
0001
0100
0000
0100
0000
0010
0000
,
0001
0100
0010
0001
,
0100
1000
0000
0000
0000
0100
0010
0100
,
1000
0010
0100
0000
0001
0010
0000
1000
,
0000
0100
0001
0000
0010
1000
0000
0100
,
0000
0001
0000
0010
1000
0000
0100
0010
,
0001
1000
0100
0000
0000
0010
0000
0100
,
0010
1000
0001
0000
0001
0000
1000
0000
,
0100
0010
0100
0000
1000
0100
0000
0010
,
0100
0001
0000
0100
0010
0100
1000
0000
,
0001
0100
0010
1000
,
0100
0010
0000
0001
0010
0100
1000
0000
,
0010
1000
0100
0000
0000
0000
0100
0001
,
0100
0001
0010
1000
0000
0000
0000
0000
;

//---------------dance-single - Copied from Copied f----------------
#NOTES:
     dance-single:
     Copied from Copied f:
     Beginner:
     3:
     0.358,0.328,0.000,0.025,0.000,198.000,0.000,2.000,0.000,0.000:
0000
0000
0000
0000
,
0100
0001
0010
0100
,
1000
0001
0100
0000
,
1000
0100
0010
1000
,
0010
0200
0000
0000
0000
0000
0000
0300
,
1000
0010
1000
0010
,
0001
0100
0100
0001
,
0010
1000
0010
1000
,
0100
0001
0100
0100
,
1000
0010
0100
0001
,
0010
1000
0010
1000
,
0100
0001
0100
0001
,
0010
0000
1000
0000
0000
0001
1000
0000
,
0010
0000
0000
0100
0010
0000
1000
0000
,
0100
0010
0001
1000
,
0100
0000
0000
0100
0010
0000
0010
0000
,
0100
0000
0010
0000
0100
1000
0000
0000
,
0000
0000
0010
1000
,
0010
1000
0100
1000
,
0001
0000
0000
0010
0200
0000
0000
0000
,
0300
0000
0000
0000
0000
0100
0001
0000
,
1000
0000
0000
0000
0010
1000
0000
0000
,
0100
0001
0100
0001
,
0010
0000
0000
0100
0010
0000
1000
0000
,
0001
0000
0100
0010
0000
0000
0000
0000
,
0000
0000
0000
0100
0010
0000
0010
0000
,
1000
0000
0100
0000
0010
0100
1000
0100
,
0010
0000
0000
0010
1000
0000
0000
0000
,
0000
0010
0100
0010
0001
0100
0000
0000
,
0000
1000
0100
0010
,
0001
0010
0100
1000
,
0100
0010
0001
0010
,
0000
0000
0000
0010
0000
0100
1000
0000
,
0100
0000
1000
0100
0000
0100
0000
0010
,
1000
0010
0001
0100
,
0100
1000
0100
1000
,
0000
0000
0100
0000
1000
0000
0100
0010
,
1000
0010
1000
0010
,
1000
0010
0100
1000
,
0000
0010
0100
0000
0100
0000
0010
0000
,
0001
0100
0010
0001
,
0100
0010
0000
0000
0000
0100
0010
0000
,
1000
0000
0100
0000
0001
0100
0000
0010
,
0000
0100
0001
0000
0010
0000
0100
0000
,
0100
0100
1000
0100
,
0001
0000
0100
0000
0000
0100
0000
0100
,
0010
0001
0001
1000
,
0100
0100
1000
0100
,
0100
0001
0010
1000
,
0001
0100
0010
1000
,
0100
1000
0010
1000
,
0010
0100
0010
0100
,
1000
0000
0010
0100
0000
0000
0000
0000
;
